What's Your Rashee DVDRiP 1CD

0 Comments »

Total size: 699.96 megabyte

Downloads: 4,201

Video
Format : MPEG-4 Visual
Format profile : Streaming Video@L1
Duration : 2h 27mn
Bit rate : 590 Kbps
Width : 592 pixels
Height : 288 pixels
Display aspect ratio : 2.056
Frame rate : 23.976 fps
Resolution : 24 bits
Colorimetry : 4:2:0
Scan type : Progressive
Bits/(Pixel*Frame) : 0.144
Stream size : 622 MiB (89%)
Writing library : XviD 1.2.1 (UTC 2008-12-04)

Audio
Format : MPEG Audio
Format version : Version 2
Format profile : Layer 3
Codec ID : 55
Codec ID/Hint : MP3
Duration : 2h 27mn
Channel(s) : 2 channels
Sampling rate : 24.0 KHz
Resolution : 16 bits
Stream size : 67.6 MiB (10%)



http://www.dryimages.com/i/TAX_RASHEE_192.png
http://www.dryimages.com/i/TAX_RASHEE_193.png
http://www.dryimages.com/i/TAX_RASHEE_195.png
http://www.dryimages.com/i/TAX_RASHEE_196.png
http://www.dryimages.com/i/TAX_RASHEE_197.png
http://www.dryimages.com/i/TAX_RASHEE_198.png
http://www.dryimages.com/i/TAX_RASHEE_199.png





Download Here
12:57 PM

0 Responses to "What's Your Rashee DVDRiP 1CD"

Post a Comment